[Français] La.vieille.dame.indigne.(1964).B&W.DVDRip.X264-SMz

Vous trouverez ici les films qui ont au moins une piste audio en français.
Post Reply
marlowe62
Registered user
Registered user
Posts: 240
Joined: Fri Jan 21, 2011 6:05 am
Been thanked: 1 time

[Français] La.vieille.dame.indigne.(1964).B&W.DVDRip.X264-SMz

Post by marlowe62 » Mon Oct 06, 2014 11:55 pm

Image


La vieille dame indigne

(The Shameless Old Lady /
La vieja dama indigna / Una vecchia signora indegna
)



- René Allio -

(Frances, 1965) [B&W, 94 m.].

Image
A Marseille, Madame Bertini se retrouve seule à la mort de son mari. Tous ses enfants sont mariés et dispersés dans la région, comme Gaston qui a réussi dans les affaires. Seul le maladroit Albert est resté à Marseille. Entre amour filial et intérêt pour l'héritage, ses deux fils aînés cherchent à accaparer leur mère. Mais elle décline leur invitation. Avec le peu d'argent reçu des ventes de l'imprimerie familiale et des biens qui avaient constitué son quotidien jusqu'alors, elle s'achète une petite voiture et, sous les yeux éberlués de son petit- fils Pierre, part à l'aventure en compagnie d'une jolie serveuse, Rosalie, jeune femme libre, pour laquelle elle s'est prise d'amitié...(Cinémotions)
AMG SYNOPSIS: The Shameless Old Lady should have been a wry French satire of society's misconceptions about the elderly; alas, the film is defeated by its own preciousness. That irreplaceable Gallic character actress Sylvie was honored with her first starring film role as a newly widowed 70-year-old woman (the actress was 81 at the time). Having lived in sequestered squalor most of her life, Sylvie suddenly decides to venture into the modern world--and she loves it! She determines to have as much fun as possible in the few years left her, while those around her (those younger, that is), cluck their tongues at how this once miserly woman is squandering her life's savings. Sylvie alone makes The Shameless Old Lady worth watching; the screenplay, which rudely patronizes and stereotypes the elderly, is far more "shameless" than any old lady. -- Hal Erickson
------------------------------------------------------------------------------------------------------

Image
** Les histoires de René Allio Vol. 2 - Shellac Sud (Francia, 2014) DVD / 1.66:1 **

Specs:
** DVDRip / AC3 2.0 french/ 656x576 --> 927x576 (16:10 / 1.609) / 94 m. / 25 fps / Chapters **

Code: Select all

General
Complete name                            : Allio-1965-La Vieille Dame Indigne.mkv
Format                                   : Matroska
Format version                           : Version 2
File size                                : 1.07 GiB
Duration                                 : 1h 34mn
Overall bit rate                         : 1 626 Kbps
Writing application                      : HandBrake rev4860
Writing library                          : libmkv 0.6.5

Video
ID                                       : 1
Format                                   : AVC
Format/Info                              : Advanced Video Codec
Format profile                           : High@L3.0
Format settings, CABAC                   : Yes
Format settings, ReFrames                : 4 frames
Codec ID                                 : V_MPEG4/ISO/AVC
Duration                                 : 1h 34mn
Bit rate                                 : 1 402 Kbps
Width                                    : 656 pixels
Height                                   : 576 pixels
Display aspect ratio                     : 16:10
Original display aspect ratio            : 16:10
Frame rate mode                          : Constant
Frame rate                               : 25.000 fps
Color space                              : YUV
Chroma subsampling                       : 4:2:0
Bit depth                                : 8 bits
Scan type                                : Progressive
Bits/(Pixel*Frame)                       : 0.148
Stream size                              : 947 MiB (86%)
Writing library                          : x264 core 120
Encoding settings                        : cabac=1 / ref=3 / deblock=1:0:0 / analyse=0x3:0x113 / me=hex / subme=7 / psy=1 / psy_rd=1,00:0,00 / mixed_ref=1 / me_range=16 / chroma_me=1 / trellis=1 / 8x8dct=1 / cqm=0 / deadzone=21,11 / fast_pskip=1 / chroma_qp_offset=-2 / threads=3 / sliced_threads=0 / nr=0 / decimate=1 / interlaced=0 / bluray_compat=0 / constrained_intra=0 / bframes=3 / b_pyramid=2 / b_adapt=2 / b_bias=0 / direct=1 / weightb=1 / open_gop=0 / weightp=2 / keyint=250 / keyint_min=25 / scenecut=40 / intra_refresh=0 / rc_lookahead=50 / rc=crf / mbtree=1 / crf=19,0 / qcomp=0,60 / qpmin=3 / qpmax=69 / qpstep=4 / ip_ratio=1,40 / aq=1:1,00
Language                                 : English
Default                                  : Yes
Forced                                   : No
Color primaries                          : BT.601 NTSC
Transfer characteristics                 : BT.709
Matrix coefficients                      : BT.601

Audio
ID                                       : 2
Format                                   : AC-3
Format/Info                              : Audio Coding 3
Mode extension                           : CM (complete main)
Format settings, Endianness              : Big
Codec ID                                 : A_AC3
Duration                                 : 1h 34mn
Bit rate mode                            : Constant
Bit rate                                 : 192 Kbps
Channel(s)                               : 2 channels
Channel positions                        : Front: L R
Sampling rate                            : 48.0 KHz
Bit depth                                : 16 bits
Compression mode                         : Lossy
Stream size                              : 130 MiB (12%)
Default                                  : Yes
Forced                                   : No

Menu
00:00:00.000                             : Chapter  1
00:10:12.960                             : Chapter  2
00:20:20.640                             : Chapter  3
00:29:54.720                             : Chapter  4
00:42:27.840                             : Chapter  5
00:56:12.960                             : Chapter  6
01:09:04.320                             : Chapter  7
01:22:20.160                             : Chapter  8
Screenshots:
Image Image
Image Image Image

Image

Image Image Image Image

Image

Image Image Image
Image Image Image

Image


eLink:
La.vieille.dame.indigne.1965.DVDRip.x264.AC3-SMz.mkv  [1.07 Gb]


Subtitles (english, fixed):
La.vieille.dame.indigne.1965.DVDRip.x264.AC3-SMz.Eng1C.srt  [62.9 Kb]

------------------------------------------------------------------------------------------------------
Thanks to siou1@SMz.


Saludos. :wink:

[ Add all 2 links to your ed2k client ]

marlowe62
Registered user
Registered user
Posts: 240
Joined: Fri Jan 21, 2011 6:05 am
Been thanked: 1 time

Re: [Français] La.vieille.dame.indigne.(1964).B&W.DVDRip.X264-SMz

Post by marlowe62 » Thu Oct 09, 2014 11:23 pm

Thank you, oski.

Post Reply

Return to “Films Français”