[Français] Mai.wei.(aka.My.Way).(2011).(Français.Dubbed).LiMiTED.BDRip.XviD-TiCKETS

Vous trouverez ici les films qui ont au moins une piste audio en français.
Post Reply
erdamon
Registered user
Registered user
Posts: 1063
Joined: Sat Oct 14, 2006 12:00 am
Been thanked: 10 times

[Français] Mai.wei.(aka.My.Way).(2011).(Français.Dubbed).LiMiTED.BDRip.XviD-TiCKETS

Post by erdamon » Sat Oct 04, 2014 1:49 pm

Mai wei (2011)
My Way (International English title)

Image

http://www.IMDb.com/title/tt1606384/

Storyline: Inspired by a true story. Jun Shik works for Tatsuo's grandfather's farm while Korea is colonized by Japan, but he has a dream to participate in Tokyo Olympics as a marathon runner. Tatsuo also aims to become a marathon runner, so the two are in rivalry. But war breaks out and they both are forced to enlist in the army. Tatsuo becomes the head of defense in Jun Shik's unit and he devises a scheme but fails. Jun Shik and Tatsuo are captured by the Soviets. They run away but soon are captured by Germans and forced to separate. In 1944, they meet again at the shores of Normandy.

Code: Select all

General
Complete name                    : my.way.2011.limited.french.BDRip.XviD-tickets.cd1.avi
Format                           : AVI
Format/Info                      : Audio Video Interleave
File size                        : 700 MiB
Duration                         : 1h 9mn
Overall bit rate                 : 1 412 Kbps

Video
ID                               : 0
Format                           : MPEG-4 Visual
Format profile                   : Advanced Simple@L5
Format settings, BVOP            : Yes
Format settings, QPel            : No
Format settings, GMC             : No warppoints
Format settings, Matrix          : Default (H.263)
Muxing mode                      : Packed bitstream
Codec ID                         : XviD
Codec ID/Hint                    : XviD
Duration                         : 1h 9mn
Bit rate                         : 1 260 Kbps
Width                            : 640 pixels
Height                           : 272 pixels
Display aspect ratio             : 2.35:1
Frame rate                       : 23.976 fps
Resolution                       : 8 bits
Colorimetry                      : 4:2:0
Scan type                        : Progressive
Bits/(Pixel*Frame)               : 0.302
Stream size                      : 624 MiB (89%)
Writing library                  : XviD 1.2.1 (UTC 2008-12-04)

Audio
ID                               : 1
Format                           : MPEG Audio
Format version                   : Version 1
Format profile                   : Layer 3
Mode                             : Joint stereo
Format_Settings_ModeExtension    : MS Stereo
Codec ID                         : 55
Codec ID/Hint                    : MP3
Duration                         : 1h 9mn
Bit rate mode                    : Variable
Bit rate                         : 140 Kbps
Nominal bit rate                 : 144 Kbps
Channel(s)                       : 2 channels
Sampling rate                    : 48.0 KHz
Stream size                      : 69.3 MiB (10%)
Alignment                        : Aligned on interleaves
Interleave, duration             : 24 ms (0.58 video frame)
Interleave, preload duration     : 197 ms
Title                            : french-ac3
Writing library                  : LAME3.98r
Encoding settings                : -m j -V 4 -q 3 -lowpass 17.5 --abr 144

Image
Image
Image Image Image Image Image


my.way.2011.limited.french.BDRip.XviD-tickets.cd1.avi  [700.02 Mb]
my.way.2011.limited.french.BDRip.XviD-tickets.cd2.avi  [698.06 Mb]

[ Add all 2 links to your ed2k client ]

Post Reply

Return to “Films Français”