[Français] Quai.d'Orsay.(2013).(Chinese.&.Français.Subbed).HDTVRip.AC3.X264-YYets

Vous trouverez ici les films qui ont au moins une piste audio en français.
Post Reply
windsage
Banned
Posts: 2144
Joined: Wed Jan 13, 2010 6:30 pm
Been thanked: 39 times

[Français] Quai.d'Orsay.(2013).(Chinese.&.Français.Subbed).HDTVRip.AC3.X264-YYets

Post by windsage » Wed Aug 06, 2014 8:27 am

Image

http://fr.wikipedia.org/wiki/Quai_d%27Orsay_%28film%29

http://en.wikipedia.org/wiki/The_French_Minister

http://www.IMDb.com/title/tt2609222/

Code: Select all

General
Unique ID                      : 212585721223060347432016900627166380146 (0x9FEE8547B2863BDBAAB175FF365BC072)
Complete name                  : E:\Quai.d'Orsay.2013.HR-HDTV.AC3.1024X576.x264.mkv
Format                         : Matroska
Format version                 : Version 2
File size                      : 1.74 GiB
Duration                       : 1h 53mn
Overall bit rate mode          : Variable
Overall bit rate               : 2 185 Kbps
Encoded date                   : UTC 2014-07-28 12:02:02
Writing application            : mkvmerge v5.8.0 ('No Sleep / Pillow') built on Sep  2 2012 15:37:04
Writing library                : libebml v1.2.3 + libmatroska v1.3.0

Video
ID                             : 1
Format                         : AVC
Format/Info                    : Advanced Video Codec
Format profile                 : High@L4.1
Format settings, CABAC         : Yes
Format settings, ReFrames      : 3 frames
Codec ID                       : V_MPEG4/ISO/AVC
Duration                       : 1h 53mn
Bit rate mode                  : Variable
Bit rate                       : 1 800 Kbps
Maximum bit rate               : 40.0 Mbps
Width                          : 1 024 pixels
Height                         : 576 pixels
Display aspect ratio           : 16:9
Frame rate mode                : Constant
Frame rate                     : 24.000 fps
Color space                    : YUV
Chroma subsampling             : 4:2:0
Bit depth                      : 8 bits
Scan type                      : Progressive
Bits/(Pixel*Frame)             : 0.127
Stream size                    : 1.40 GiB (80%)
Writing library                : x264 core 129 r2230 1cffe9f
Encoding settings              : cabac=1 / ref=4 / deblock=1:0:0 / analyse=0x3:0x113 / me=hex / subme=7 / psy=1 / psy_rd=1.00:0.00 / mixed_ref=1 / me_range=16 / chroma_me=1 / trellis=1 / 8x8dct=1 / cqm=0 / deadzone=21,11 / fast_pskip=1 / chroma_qp_offset=-2 / threads=12 / lookahead_threads=2 / sliced_threads=0 / slices=4 / nr=0 / decimate=1 / interlaced=0 / bluray_compat=0 / constrained_intra=0 / bframes=3 / b_pyramid=1 / b_adapt=1 / b_bias=0 / direct=1 / weightb=1 / open_gop=0 / weightp=2 / keyint=23 / keyint_min=1 / scenecut=40 / intra_refresh=0 / rc_lookahead=23 / rc=2pass / mbtree=1 / bitrate=1800 / ratetol=1.0 / qcomp=0.60 / qpmin=10 / qpmax=51 / qpstep=4 / cplxblur=20.0 / qblur=0.5 / vbv_maxrate=40000 / vbv_bufsize=30000 / nal_hrd=vbr / ip_ratio=1.40 / aq=1:1.00
Language                       : English
Default                        : Yes
Forced                         : No

Audio
ID                             : 2
Format                         : AC-3
Format/Info                    : Audio Coding 3
Mode extension                 : CM (complete main)
Format settings, Endianness    : Big
Codec ID                       : A_AC3
Duration                       : 1h 53mn
Bit rate mode                  : Constant
Bit rate                       : 384 Kbps
Channel(s)                     : 6 channels
Channel positions              : Front: L C R, Side: L R, LFE
Sampling rate                  : 48.0 KHz
Bit depth                      : 16 bits
Compression mode               : Lossy
Stream size                    : 313 MiB (18%)
Language                       : French
Default                        : Yes
Forced                         : No
Image

Quai.d'Orsay.2013.HR-HDTV.AC3.1024X576.x264.mkv  [1.74 Gb]

Post Reply

Return to “Films Français”