Become a registered member and get smaller ads or none at all! 
 Login    Register
  • Author
    Message

Barbie.the.Princess.and.the.Popstar.(2012).DVDRip.AC3.XviD.HQ.Hive-CM8

Postby hammers66 » Fri Sep 14, 2012 8:06 am

Image

Genre : Kids / Family

Plot : Tori, the kind-hearted princess of the magical kingdom of Meribella, would rather sing and dance than perform her royal duties. When she meets her favorite pop star Keira, the girls discover they have much in common including a magical secret that lets them look like one another and swap places. When the kingdom's magical secret is stolen, their true friendship is tested and they discover that the best thing you can be is yourself.


Code: Select all
General
Complete name : Barbie.The.Princess.And.The.Popstar.2012.DVDRip.XVID.AC3.HQ.Hive-CM8.avi
Format : AVI
Format/Info : Audio Video Interleave
File size : 1.14 GiB
Duration : 1h 15mn
Overall bit rate : 2 155 Kbps
Writing application : Nandub v1.0rc2
Writing library : Nandub build 1853/release

Video
ID : 0
Format : MPEG-4 Visual
Format profile : Advanced Simple@L5
Format settings, BVOP : 2
Format settings, QPel : Yes
Format settings, GMC : No warppoints
Format settings, Matrix : Default (H.263)
Muxing mode : Packed bitstream
Codec ID : XVID
Codec ID/Hint : XviD
Duration : 1h 15mn
Bit rate : 1 698 Kbps
Width : 720 pixels
Height : 400 pixels
Display aspect ratio : 16:9
Frame rate : 23.976 fps
Color space : YUV
Chroma subsampling : 4:2:0
Bit depth : 8 bits
Scan type : Progressive
Compression mode : Lossy
Bits/(Pixel*Frame) : 0.246
Stream size : 916 MiB (79%)
Writing library : XviD 1.2.1 (UTC 2008-12-04)

Audio
ID : 1
Format : AC-3
Format/Info : Audio Coding 3
Mode extension : CM (complete main)
Format settings, Endianness : Big
Codec ID : 2000
Duration : 1h 15mn
Bit rate mode : Constant
Bit rate : 448 Kbps
Channel(s) : 6 channels
Channel positions : Front: L C R, Side: L R, LFE
Sampling rate : 48.0 KHz
Bit depth : 16 bits
Compression mode : Lossy
Stream size : 242 MiB (21%)
Alignment : Split across interleaves
Interleave, duration : 42 ms (1.00 video frame)
Interleave, preload duration : 500 ms


http://www.amazon.com/Barbie-Princess-A ... 008CN091M/

Image

Image

Image

Image

Image

Image

Barbie.The.Princess.And.The.Popstar.2012.DVDRip.XviD.AC3.HQ.Hive-CM8.avi  [1.14 GB] Check Sources on shortypower.org Check Sources on peerates.net Dupe Check

User avatar
hammers66
Provider
Provider
 
Karma: [+] 2628 [-]
Posts: 11851
Joined: Thu Mar 09, 2006 9:58 pm
Location: http://hammers66.co.uk/etfiles

Re: Barbie.the.Princess.and.the.Popstar.(2012).DVDRip.AC3.XviD.HQ.Hive-CM8

Postby poison13 » Fri Sep 14, 2012 9:27 am

thanks hammers. :)
User avatar
poison13
Donator
Donator
 
Karma: [+] 18 [-]
Posts: 1045
Joined: Sun Dec 18, 2005 2:09 pm

Re: Barbie.the.Princess.and.the.Popstar.(2012).DVDRip.AC3.XviD.HQ.Hive-CM8

Postby deetee89 » Sat Sep 15, 2012 8:40 pm

Thank you.
deetee89
Dedicated Donkey
Dedicated Donkey
 
Karma: [+] 7 [-]
Posts: 646
Joined: Sun Dec 19, 2004 9:35 am
Location: U.K.

Re: Barbie.the.Princess.and.the.Popstar.(2012).DVDRip.AC3.XviD.HQ.Hive-CM8

Postby vossler » Sun Sep 16, 2012 4:13 pm

thanks
vossler
Donator
Donator
 
Karma: [+] 2 [-]
Posts: 519
Joined: Fri Mar 05, 2010 5:58 am

Return to Kids Corner

Who is online

Users browsing this forum: No registered users and 0 guests