Become a registered member and get smaller ads or none at all! 
 Login    Register
  • Author
    Message

Attitude - The Good, The Bad, The Obnoxious (1990) [Rock]

Postby SurowyTato » Sun Aug 03, 2008 2:40 pm

Attitude - The Good, The Bad, The Obnoxious (1990)

Image

Artist: Attitude
Album: The Good, The Bad, The Obnoxious
Released: 1990
Label: We Bite Records
Catalog: WB 0382821CD | SPV 85-1283
Genre: Hardcore, Thrash
Format: EAC-APE-CUE-LOG-HQCovers
Extractor: Exact Audio Copy v0.99pb3
Codec: Monkey's Audio 3.97
Compression: High Lossless
Total Time: 38:10
Ripper: SurowyTato

Attitude was around from 1986-1989. Recordings included Kein Schlaf bis Deutschland, The Good the Bad the Obnoxious, Drive By Shooting (all EPs) and the Hard Times Demo which was the pre-cursor to the Two Bit Thief - Another Sad Story album recorded in 1990 with the same members and different name. (west-wind.com)

Tracklist:
01. Intro [0:33]
02. Homeless Crew [2:20]
03. To Whom It May Concern [4:53]
04. Kicked In The Teeth [3:27]
05. Practicing For War [1:43]
06. No TV Sketch [1:34]
07. Save Thy Brother [3:18]
08. No Blind Power [2:42]
09. Warhead [2:52]
10. When Worlds Collide [2:57]
11. Freak [3:16]
12. Drive By Shooting [2:42]
13. Summer Time Blues [3:50]
14. Third World Child [2:00]

All tracks recorded at Prairie Sun Studios, Room 4
except 4,6,9,11,13 recorded at Masterplan Studios, Hamburg, West Germany
Engineered by Dino Alden
Second engineered by Marc 'Elvis' Reyburn
4,6,9,11,13 tracks engineered by Stephan Mottek
All tracks remixed by Dino Alden and Andy Andersen
All tracks produced by Andy Andersen
Manufactured in West-Germany

Personnel:
Andy Andersen - vocals
Chris Scaparro - guitar
Rick Strahl - bass
Eric Brecht - drums

www:
http://www.west-wind.com/music/attitude
http://www.discogs.com/artist/Attitude+(4)
http://www.metal-archives.com/release.php?id=95149

Code: Select all
Exact Audio Copy V0.99 prebeta 3 from 28. July 2007

EAC extraction logfile from 4. July 2008, 18:36

Attitude / The Good, The Bad, The Obnoxious

Used drive  : PLEXTOR DVDR   PX-810SA   Adapter: 1  ID: 0

Read mode               : Secure
Utilize accurate stream : Yes
Defeat audio cache      : Yes
Make use of C2 pointers : No

Read offset correction                      : 48
Overread into Lead-In and Lead-Out          : No
Fill up missing offset samples with silence : Yes
Delete leading and trailing silent blocks   : No
Null samples used in CRC calculations       : Yes
Used interface                              : Installed external ASPI interface

Used output format : Internal WAV Routines
Sample format      : 44.100 Hz; 16 Bit; Stereo


TOC of the extracted CD

     Track |   Start  |  Length  | Start sector | End sector
    ---------------------------------------------------------
        1  |  0:00.00 |  0:33.27 |         0    |     2501   
        2  |  0:33.27 |  2:20.48 |      2502    |    13049   
        3  |  2:54.00 |  4:53.00 |     13050    |    35024   
        4  |  7:47.00 |  3:27.25 |     35025    |    50574   
        5  | 11:14.25 |  1:43.00 |     50575    |    58299   
        6  | 12:57.25 |  1:34.00 |     58300    |    65349   
        7  | 14:31.25 |  3:18.00 |     65350    |    80199   
        8  | 17:49.25 |  2:42.00 |     80200    |    92349   
        9  | 20:31.25 |  2:52.50 |     92350    |   105299   
       10  | 23:24.00 |  2:57.00 |    105300    |   118574   
       11  | 26:21.00 |  3:16.00 |    118575    |   133274   
       12  | 29:37.00 |  2:42.50 |    133275    |   145474   
       13  | 32:19.50 |  3:50.25 |    145475    |   162749   
       14  | 36:10.00 |  2:00.55 |    162750    |   171804   


Range status and errors

Selected range

     Filename E:\INCOMING\EAC\Attitude - The Good, The Bad, The Obnoxious.wav

     Peak level 100.0 %
     Range quality 100.0 %
     Test CRC 9240CFC9
     Copy CRC 9240CFC9
     Copy OK

No errors occurred

End of status report


Link ed2k: Attitude.-.(1990).The.Good.The.Bad.The.Obnoxious.(APE-CUE).by.SurowyTato.rar  [251.40 MB] Check Sources on shortypower.org Check Sources on peerates.net Dupe Check
SurowyTato
Forum Fanatic
Forum Fanatic
 
Karma: [+] 5 [-]
Posts: 77
Joined: Sat Dec 15, 2007 4:05 pm
Location: POLAND

Return to Lossless Complete Albums and Compilations

Who is online

Users browsing this forum: No registered users and 2 guests