Restraint.(2008).FESTiVAL.DVDRip.XviD-iNTiMiD

Any retail rips of movies that were made this century up to the year 2009.
hammers66
Registered user
Registered user
Posts: 8969
Joined: Thu Mar 09, 2006 9:58 pm
Been thanked: 7 times

Restraint.(2008).FESTiVAL.DVDRip.XviD-iNTiMiD

Post by hammers66 » Sat Aug 16, 2008 10:41 am

Restraint (2008) FESTiVAL-DVDRip-XviD-iNTiMiD

Image



ImageImageImageImageImage

Restraint.2008.FESTiVAL.DVDRip.XviD-iNTiMiD.avi  [700.05 Mb]

Code: Select all

General
Complete name                    : D:\eMule\Restraint.2008.FESTiVAL.DVDRip.XviD-iNTiMiD.sharethefiles.com.avi
Format                           : AVI
Format/Info                      : Audio Video Interleave
File size                        : 700 MiB
Duration                         : 1h 31mn
Overall bit rate                 : 1 070 Kbps
Writing application              : Nandub v1.0rc2
Writing library                  : Nandub build 1853/release

Video
ID                               : 0
Format                           : MPEG-4 Visual
Format profile                   : Advanced Simple@L5
Format settings, BVOP            : Yes
Format settings, QPel            : No
Format settings, GMC             : No warppoints
Format settings, Matrix          : Default (H.263)
Muxing mode                      : Packed bitstream
Codec ID                         : XviD
Codec ID/Hint                    : XviD
Duration                         : 1h 31mn
Bit rate                         : 915 Kbps
Width                            : 640 pixels
Height                           : 272 pixels
Display aspect ratio             : 2.35:1
Frame rate                       : 23.976 fps
Resolution                       : 8 bits
Colorimetry                      : 4:2:0
Scan type                        : Progressive
Bits/(Pixel*Frame)               : 0.219
Stream size                      : 598 MiB (85%)
Writing library                  : XviD 1.1.2 (UTC 2006-11-01)

Audio
ID                               : 1
Format                           : MPEG Audio
Format version                   : Version 1
Format profile                   : Layer 3
Mode                             : Joint stereo
Format_Settings_ModeExtension    : MS Stereo
Codec ID                         : 55
Codec ID/Hint                    : MP3
Duration                         : 1h 31mn
Bit rate mode                    : Variable
Bit rate                         : 143 Kbps
Minimum bit rate                 : 32.0 Kbps
Channel(s)                       : 2 channels
Sampling rate                    : 48.0 KHz
Stream size                      : 93.3 MiB (13%)
Alignment                        : Aligned on interleaves
Interleave, duration             : 24 ms (0.58 video frame)
Interleave, preload duration     : 176 ms
Writing library                  : LAME3.98a
Encoding settings                : -m j -V 3 -q 0 -lowpass 18 --vbr-new -b 32
Last edited by hammers66 on Fri Oct 03, 2014 8:20 am, edited 2 times in total.
Reason: Added poster, snapshots & tech specs.

blueboy68
Registered user
Registered user
Posts: 532
Joined: Wed Jun 27, 2007 12:03 am

Post by blueboy68 » Sat Aug 16, 2008 10:45 am

Thanks m8 :)

Off to get ready for the big day soon :D

hammers66
Registered user
Registered user
Posts: 8969
Joined: Thu Mar 09, 2006 9:58 pm
Been thanked: 7 times

Post by hammers66 » Sat Aug 16, 2008 11:04 am

blueboy68 wrote:Thanks m8 :)

Off to get ready for the big day soon :D
me to mate Image

Valtiel
Registered user
Registered user
Posts: 1060
Joined: Fri Dec 29, 2006 1:03 am

Post by Valtiel » Sat Aug 16, 2008 11:05 am

thanks

independent
Registered user
Registered user
Posts: 611
Joined: Wed Apr 23, 2008 12:55 pm
Been thanked: 1 time

Post by independent » Sat Aug 16, 2008 8:58 pm

thanks

PirateLady

Post by PirateLady » Sun Aug 17, 2008 8:16 am

Thank You.

mike7
Newly registered user
Newly registered user
Posts: 3
Joined: Sat Jul 05, 2008 5:46 pm

Post by mike7 » Tue Aug 19, 2008 2:17 pm

Thank You!!

Here2Share
Donator
Donator
Posts: 980
Joined: Thu Jul 21, 2011 9:00 am
Has thanked: 186 times

Re: Restraint.(2008).FESTiVAL.DVDRip.XviD-iNTiMiD

Post by Here2Share » Sun Feb 17, 2013 3:08 pm

Thanks for this! :thumbs

Post Reply Previous topicNext topic

Return to “Retail Rips (2000-2009) (BDRip, DVDRip)”

Who is online

Users browsing this forum: No registered users and 2 guests