Become a registered member and get smaller ads or none at all! 
 Login    Register
  • Author
    Message

[Mandarin] Xi.you.ji.(aka.Monkey.Goes.West).(1966).iNT.DVDRip.X264-NowYS

Postby IoNeL » Thu Jul 29, 2010 8:44 am

[Mandarin]Xi.you.ji(aka.Monkey.Goes.West).(1966).SB.DVDRip.AC3.-x264-iNT-NowYS
GENRE:Fantasy | Adventure
Image

Image

Image


Xi you ji(aka Monkey Goes West )(1966)
User Reviews (7 out of 7 people found the following review useful.)

beautifully restored Shaw Brothers classic, 7 September 2003
Author: curtpdx from Portland, OR

This film version tells an early segment of the lengthy Chinese folk tale Journey to the West. The newly released (in Hong Kong, anyway) DVD version has been digitally restored, and so the visual and audio presentation is at least as good as it was at its 1966 release, with full, rich color and sound (I kept thinking of the restored version of The Wizard of Oz, with the almost-too-bright colors).
The film clearly was made for Chinese audiences who would have been familiar with the story. Consequently, much of the history of Monkey, Pigsy and Sandy is brief to nonexistant, which is a shame, as it's central to understanding how they came to be together. Nonetheless, it's thoroughly enjoyable; even the musical numbers.
Celestial Pictures has also released another story from Journey to the West, Princess Iron Fan, with many of the same characters.

TECHNICAL SPECIFICATION:

Code: Select all
General
Complete name                    : The.Monkey.Goes.West.1966.SB.DVDRip.x264.AC3.iNT-NowYS.[DivXForever].mkv
Format                           : Matroska
File size                        : 1.37 GiB
Duration                         : 1h 51mn
Overall bit rate                 : 1 759 Kbps
Encoded date                     : UTC 2010-01-03 15:00:17
Writing application              : mkvmerge v2.9.7 ('Tenderness') built on Jul  1 2009 18:43:35
Writing library                  : libebml v0.7.7 + libmatroska v0.8.1

Video
ID                               : 1
Format                           : AVC
Format/Info                      : Advanced Video Codec
Format profile                   : High@L3.1
Format settings, CABAC           : Yes
Format settings, ReFrames        : 16 frames
Muxing mode                      : Container profile=Unknown@3.1
Codec ID                         : V_MPEG4/ISO/AVC
Duration                         : 1h 51mn
Bit rate                         : 1 532 Kbps
Nominal bit rate                 : 1 565 Kbps
Width                            : 720 pixels
Height                           : 288 pixels
Display aspect ratio             : 2.500
Frame rate                       : 29.970 fps
Resolution                       : 8 bits
Colorimetry                      : 4:2:0
Scan type                        : Progressive
Bits/(Pixel*Frame)               : 0.247
Stream size                      : 1.19 GiB (87%)
Title                            : R3.DVD5
Writing library                  : x264 core 68 r1183M f21daff
Encoding settings                : cabac=1 / ref=16 / deblock=1:-2:-1 / analyse=0x3:0x113 / me=umh / subme=9 / psy_rd=1.0:0.2 / mixed_ref=1 / me_range=32 / chroma_me=1 / trellis=1 / 8x8dct=1 / cqm=0 / deadzone=21,11 / chroma_qp_offset=-3 / threads=3 / nr=0 / decimate=0 / mbaff=0 / bframes=3 / b_pyramid=1 / b_adapt=1 / b_bias=0 / direct=1 / wpredb=1 / keyint=250 / keyint_min=25 / scenecut=40 / rc=2pass / bitrate=1565 / ratetol=4.0 / qcomp=0.60 / qpmin=10 / qpmax=51 / qpstep=4 / cplxblur=20.0 / qblur=0.5 / ip_ratio=1.40 / pb_ratio=1.30 / aq=1:0.50
Language                         : Chinese

Audio
ID                               : 2
Format                           : AC-3
Format/Info                      : Audio Coding 3
Codec ID                         : A_AC3
Duration                         : 1h 51mn
Bit rate mode                    : Constant
Bit rate                         : 192 Kbps
Channel(s)                       : 2 channels
Channel positions                : Front: L R
Sampling rate                    : 48.0 KHz
Stream size                      : 153 MiB (11%)
Title                            : Mandarin
Language                         : Chinese

SCREENSHOTS:

Image

Image

Image

Image
ED2K LINKS:


[ Add all 2 links to your ed2k client ]
User avatar
IoNeL
Contributor
Contributor
 
Karma: [+] 495 [-]
Posts: 5212
Joined: Tue Mar 17, 2009 11:53 pm
Location: Everywhere there is friendship

Re: [Mandarin] Xi.you.ji(aka.Monkey.Goes.West).(1966).SB.DVDRip.AC3.-X264-iNT-NowYS

Postby ilikefree » Thu Jul 29, 2010 10:15 am

oh hell yeah!

cheers dude :D
User avatar
ilikefree
Donator
Donator
 
Karma: [+] 30 [-]
Posts: 881
Joined: Thu Jul 26, 2007 10:25 am
Location: ozi

Return to East Asian

Who is online

Users browsing this forum: No registered users and 5 guests