Become a registered member and get smaller ads or none at all! 
 Login    Register
  • Author
    Message

The.burbs.(1989).DVDRip.XviD

Postby deadbodyman » Sun Feb 15, 2009 11:22 pm

Image

http://www.imdb.com/title/tt0096734/
An overstressed suburbanite and his paramilitaric neighbor struggle to prove their paranoid theory that the new family in town is a front for a cannibalistic cult.

Code: Select all
General
Complete name                    : The.Burbs.(1989).DVDRip.XviD.avi
Format                           : AVI
Format/Info                      : Audio Video Interleave
File size                        : 700 MiB
Duration                         : 1h 37mn
Overal bit rate                  : 1007 Kbps
Writing application              : VirtualDubMod 1.5.4.1 (build 2178/release)
Writing library                  : VirtualDubMod build 2178/release
IAS1                             : English

Video
Format                           : MPEG-4 Visual
Format profile                   : Streaming Video@L1
Format settings, BVOP            : Yes
Format settings, QPel            : No
Format settings, GMC             : No warppoints
Format settings, Matrix          : Custom
Codec ID                         : XVID
Codec ID/Hint                    : XviD
Duration                         : 1h 37mn
Bit rate                         : 880 Kbps
Width                            : 624 pixels
Height                           : 336 pixels
Display aspect ratio             : 1.857
Frame rate                       : 25.000 fps
Resolution                       : 8 bits
Colorimetry                      : 4:2:0
Scan type                        : Progressive
Bits/(Pixel*Frame)               : 0.168
Stream size                      : 612 MiB
Writing library                  : XviD 1.2.0.dev47 (UTC 2006-11-01)

Audio
Format                           : MPEG Audio
Format version                   : Version 1
Format profile                   : Layer 3
Codec ID                         : 55
Codec ID/Hint                    : MP3
Duration                         : 1h 37mn
Bit rate mode                    : Variable
Bit rate                         : 114 Kbps
Minimum bit rate                 : 128 Kbps
Channel(s)                       : 2 channels
Sampling rate                    : 48.0 KHz
Resolution                       : 16 bits
Stream size                      : 79.4 MiB
Writing library                  : LAME3.97
Encoding settings                : ABR

Image

Image

Image

Image

Image

The.Burbs.(1989).DVDRip.XviD.avi  [700.02 MB] Check Sources on shortypower.org Check Sources on peerates.net Dupe Check
User avatar
deadbodyman
Software Agent
Software Agent
 
Karma: [+] 1294 [-]
Posts: 12609
Joined: Wed Aug 22, 2007 10:52 pm
Location: Canada

Re: The.burbs.(1989).DVDRip.XviD

Postby Mark_Man » Wed Sep 21, 2011 12:00 am

thanks mate :v
Mark_Man
Donator
Donator
 
Karma: [+] 184 [-]
Posts: 1007
Joined: Wed Oct 20, 2010 9:58 am

Return to Retail Rips (19xx) (BDRip, DVDRip)

Who is online

Users browsing this forum: No registered users and 1 guest