Become a registered member and get smaller ads or none at all! 
 Login    Register
  • Author
    Message

Jobs (2013) TSCam

Postby Heckler » Sat Aug 31, 2013 7:56 am

Image

Code: Select all
General
Complete name                            : Jobs.(2013)TSCam.mp4
Format                                   : MPEG-4
Format profile                           : Base Media
Codec ID                                 : isom
File size                                : 366 MiB
Duration                                 : 1h 59mn
Overall bit rate                         : 428 Kbps
Writing application                      : Lavf54.32.101

Video
ID                                       : 1
Format                                   : AVC
Format/Info                              : Advanced Video Codec
Format profile                           : High@L2.1
Format settings, CABAC                   : Yes
Format settings, ReFrames                : 4 frames
Codec ID                                 : avc1
Codec ID/Info                            : Advanced Video Coding
Duration                                 : 1h 59mn
Bit rate mode                            : Variable
Bit rate                                 : 324 Kbps
Width                                    : 720 pixels
Height                                   : 228 pixels
Display aspect ratio                     : 3.111
Original display aspect ratio            : 3.109
Frame rate mode                          : Constant
Frame rate                               : 24.000 fps
Color space                              : YUV
Chroma subsampling                       : 4:2:0
Bit depth                                : 8 bits
Scan type                                : Progressive
Bits/(Pixel*Frame)                       : 0.082
Stream size                              : 277 MiB (76%)
Writing library                          : x264 core 128 r2216 198a7ea
Encoding settings                        : qpmax=51 / qpstep=4 / ip_ratio=1.40 / aq=1:1.00

Audio
ID                                       : 2
Format                                   : AAC
Format/Info                              : Advanced Audio Codec
Format profile                           : LC
Codec ID                                 : 40
Duration                                 : 1h 59mn
Bit rate mode                            : Constant
Bit rate                                 : 98.2 Kbps
Channel(s)                               : 2 channels
Channel positions                        : Front: L R
Sampling rate                            : 44.1 KHz
Compression mode                         : Lossy
Delay relative to video                  : 83ms
Stream size                              : 83.8 MiB (23%)
Language                                 : English


Image
Image
Image
Image
Jobs.(2013)TSCam.avc1.mp4  [365.55 MB] Check Sources on shortypower.org Check Sources on peerates.net Dupe Check
Heckler
Prestigious Poster
Prestigious Poster
 
Karma: [+] 30 [-]
Posts: 291
Joined: Sat Jan 12, 2013 3:56 am

Re: Jobs (2013) TSCam

Postby Heckler » Sat Aug 31, 2013 7:57 am

The First 5 minutes of this cam is extremely Burry, Be patient ,after that its really not bad.
Heckler
Prestigious Poster
Prestigious Poster
 
Karma: [+] 30 [-]
Posts: 291
Joined: Sat Jan 12, 2013 3:56 am

Return to Cinema Releases (TC, TS, CAM)

Who is online

Users browsing this forum: No registered users and 2 guests