Singing.Guns.(1950).FS.HDRip.AAC.x264

Movies, made before 2010, ripped from one of the following sources: DVD/VHS Screener (DVDScr/VHSScr), Workprint (WP), R5 DVD (R5.DVDRip), PDVD (PDVDRip), VHS (VHSRip), LaserDisc (LDCap), and television source encodes (HDTV, DCCap, SatRip, DSRip, TVRip).
Post Reply
IoNeL
Banned
Posts: 3338
Joined: Tue Mar 17, 2009 11:53 pm
Been thanked: 3 times

Singing.Guns.(1950).FS.HDRip.AAC.x264

Post by IoNeL » Tue Apr 21, 2015 8:41 pm

Singing Guns(1950)
Image
http://www.IMDb.com/title/tt0042970
91 min | Western |
Rhiannon, an outlaw who regularly robs gold from the stagecoach, shoots the new sheriff and then carries him to the doctor. The doctor CLEANS UP Rhiannon and presents him to the sheriff as the man who saved his life. Rhiannon is deputized by the sheriff, and becomes torn between his new life and the prospect of robbing the next gold shipment...
- Written by Al Fore

Code: Select all

General
Complete name                            : ZZZ:\Singing Guns  (Western 1950)  Vaughn Monroe  720p\Singing.Guns.(1950).FS.HDRip.AAC.x264 sharethefiles.com.mp4
Format                                   : MPEG-4
Format profile                           : Base Media / Version 2
Codec ID                                 : mp42
File size                                : 952 MiB
Duration                                 : 1h 30mn
Overall bit rate mode                    : Variable
Overall bit rate                         : 1 467 Kbps
Writing application                      : HandBrake 0.10.1 2015030800

Video
ID                                       : 1
Format                                   : AVC
Format/Info                              : Advanced Video Codec
Format profile                           : High@L3.1
Format settings, CABAC                   : Yes
Format settings, ReFrames                : 5 frames
Codec ID                                 : avc1
Codec ID/Info                            : Advanced Video Coding
Duration                                 : 1h 30mn
Bit rate                                 : 1 300 Kbps
Width                                    : 960 pixels
Height                                   : 720 pixels
Display aspect ratio                     : 4:3
Frame rate mode                          : Variable
Frame rate                               : 23.976 fps
Minimum frame rate                       : 23.974 fps
Maximum frame rate                       : 23.981 fps
Color space                              : YUV
Chroma subsampling                       : 4:2:0
Bit depth                                : 8 bits
Scan type                                : Progressive
Bits/(Pixel*Frame)                       : 0.078
Stream size                              : 843 MiB (89%)
Writing library                          : x264 core 142 r2479 dd79a61
Encoding settings                        : cabac=1 / ref=5 / deblock=1:0:0 / analyse=0x3:0x113 / me=umh / subme=8 / psy=1 / psy_rd=1.00:0.00 / mixed_ref=1 / me_range=16 / chroma_me=1 / trellis=1 / 8x8dct=1 / cqm=0 / deadzone=21,11 / fast_pskip=1 / chroma_qp_offset=-2 / threads=3 / lookahead_threads=1 / sliced_threads=0 / nr=0 / decimate=1 / interlaced=0 / bluray_compat=0 / constrained_intra=0 / bframes=3 / b_pyramid=2 / b_adapt=2 / b_bias=0 / direct=3 / weightb=1 / open_gop=0 / weightp=2 / keyint=240 / keyint_min=24 / scenecut=40 / intra_refresh=0 / rc_lookahead=50 / rc=2pass / mbtree=1 / bitrate=1300 / ratetol=1.0 / qcomp=0.60 / qpmin=0 / qpmax=69 / qpstep=4 / cplxblur=20.0 / qblur=0.5 / ip_ratio=1.40 / aq=1:1.00
Color primaries                          : BT.709
Transfer characteristics                 : BT.709
Matrix coefficients                      : BT.709
Color range                              : Limited

Audio
ID                                       : 2
Format                                   : AAC
Format/Info                              : Advanced Audio Codec
Format profile                           : LC
Codec ID                                 : 40
Duration                                 : 1h 30mn
Bit rate mode                            : Variable
Bit rate                                 : 160 Kbps
Channel(s)                               : 2 channels
Channel positions                        : Front: L R
Sampling rate                            : 48.0 KHz
Compression mode                         : Lossy
Stream size                              : 104 MiB (11%)
Title                                    : English / English
Language                                 : English
Image
Image
Image

[glow=red]more SS[/glow]
Spoiler: Toggle

Image
https://www.youtube.com/watch?v=SQqGGowGnnY
Image Image
Singing.Guns.(1950).FS.HDRip.AAC.x264.mp4  [951.78 Mb]

Post Reply

Return to “Non-Retail (19xx-2009) (DVDScr, WP, R5, PDVD, VHS, LD, HDTV, TV)”

Who is online

Users browsing this forum: No registered users and 2 guests