The.Borrowers.(1973).FS.VHSRip.XviD-McVeyClan1

Movies, made before 2010, ripped from one of the following sources: DVD/VHS Screener (DVDScr/VHSScr), Workprint (WP), R5 DVD (R5.DVDRip), PDVD (PDVDRip), VHS (VHSRip), LaserDisc (LDCap), and television source encodes (HDTV, DCCap, SatRip, DSRip, TVRip).
Post Reply
mcveyclan1
Vicarious Learner
Vicarious Learner
Posts: 22
Joined: Fri Apr 04, 2014 9:26 pm
Has thanked: 2 times
Been thanked: 1 time

The.Borrowers.(1973).FS.VHSRip.XviD-McVeyClan1

Post by mcveyclan1 » Tue Sep 23, 2014 3:01 pm

http://www.IMDb.com/title/tt0069817

Cast:
Eddie Albert as Pod Clock
Tammy Grimes as Homily Clock
Judith Anderson as Great Aunt Sophy
Karen Pearson as Arriety Clock
Dennis Larson as The Boy

Synopsis:
The Borrowers is a Hallmark Hall of Fame TV special first broadcast in 1973 on NBC. This made for television special is adapted from the 1952 Carnegie Medal-winning first novel of author Mary Norton's The Borrowers series: The Borrowers. In 1974, the special was awarded an Emmy for Outstanding Individual Achievement in Children's Programming and was nominated for Outstanding Children's Special, Outstanding Individual Achievement in Children's Programming, Outstanding Individual Achievement in Children's Programming and Outstanding Individual Achievement in Children's Programming. The special tells the story of the Clock Family, tiny people who live in an old English house. The Clock Family are "borrowers," tiny people who live in the houses of regular sized "human beans" (a borrower mispronunciation of "human beings"). They survive by borrowing all they need from big people and try to keep their existence secret. The main characters are a teenage borrower girl named Arriety Clock and her parents, Pod and Homily. During a borrowing expedition with her father and contrary to borrower nature, Arriety befriends a human boy who lives in the home and develops a friendship with him.
The tiny family, who live under the kitchen floorboards of an old manor, are eventually discovered by the other humans who occupy the home and are forced to flee into the English countryside.

Code: Select all

General
Complete name                            : The Borrowers 1973.avi
Format                                   : AVI
Format/Info                              : Audio Video Interleave
File size                                : 701 MiB
Duration                                 : 1h 23mn
Overall bit rate                         : 1 170 Kbps
Writing application                      : VirtualDubMod 1.5.4.1 (build 2178/release)
Writing library                          : VirtualDubMod build 2178/release

Video
ID                                       : 0
Format                                   : MPEG-4 Visual
Format profile                           : Advanced Simple@L5
Format settings, BVOP                    : 1
Format settings, QPel                    : No
Format settings, GMC                     : No warppoints
Format settings, Matrix                  : Custom
Codec ID                                 : XviD
Codec ID/Hint                            : XviD
Duration                                 : 1h 23mn
Bit rate                                 : 906 Kbps
Width                                    : 480 pixels
Height                                   : 368 pixels
Display aspect ratio                     : 4:3
Frame rate                               : 29.970 fps
Color space                              : YUV
Chroma subsampling                       : 4:2:0
Bit depth                                : 8 bits
Scan type                                : Progressive
Compression mode                         : Lossy
Bits/(Pixel*Frame)                       : 0.171
Stream size                              : 543 MiB (77%)
Writing library                          : XviD 65

Audio
ID                                       : 1
Format                                   : AC-3
Format/Info                              : Audio Coding 3
Format profile                           : Dolby Digital
Mode extension                           : CM (complete main)
Format settings, Endianness              : Big
Codec ID                                 : 2000
Duration                                 : 1h 23mn
Bit rate mode                            : Constant
Bit rate                                 : 256 Kbps
Channel(s)                               : 2 channels
Channel positions                        : Front: L R
Sampling rate                            : 48.0 KHz
Bit depth                                : 16 bits
Compression mode                         : Lossy
Stream size                              : 153 MiB (22%)
Alignment                                : Split accross interleaves
Interleave, duration                     : 96 ms (2.88 video frames)
Interleave, preload duration             : 96 ms
Image
Image
Image
Image
Image
Image
Image Image Image Image

The.Borrowers.1973.avi  [700.71 Mb]

Note: This was ripped from a Dollar Store DVD probably encoded form an old VHS since it was aired in 1973 and the color is washed out if anyone wants to enhance it be my guest.

Post Reply

Return to “Non-Retail (19xx-2009) (DVDScr, WP, R5, PDVD, VHS, LD, HDTV, TV)”

Who is online

Users browsing this forum: No registered users and 2 guests