Become a registered member and get smaller ads or none at all! 
 Login    Register
  • Author
    Message

[Romanian] Legaturi.bolnavicioase.(aka.Love.Sick).(2006).(Français.Subbed).DVDRip.XviD

Postby Andrei » Tue Jan 06, 2009 7:10 pm

Legaturi bolnavicioase (2006)
GENRE: Drama
Image
Image
Plot:
Love. It just happens. No rules. It may look sick, but it's deep and it hurts. For everyone, Alex and Kiki are just good friends. They happen to be two girls experiencing another kind of love. For their family, Kiki and Sandu are sister and brother who sometimes fight. They happen to be lovers. Love Sick is about their stories.


PLOT KEYWORDS:
Brother Sister Relationship | Lesbian Interest | Library | Lesbian Kiss | Student

Also Known As (AKA)

Caindo de Amor Brazil (festival title)
Enfermos de amor Argentina (cable TV title)
Love Sick International (English title)
Love sick - Nell'amore non ci sono regole Italy
Niebezpieczne zwiazki Poland
Ston asterismo tou pathous Greece (DVD title)
TECHNICAL SPECIFICATION:
Code: Select all
General
Complete name                    : D:\Emule\Legaturi.bolnavicioase.(aka.Love.Sick).(2006).(Français.Subbed).DVDRip.XviD.avi
Format                           : AVI
Format/Info                      : Audio Video Interleave
File size                        : 700 MiB
Duration                         : 1h 23mn
Overall bit rate                 : 1 165 Kbps
Writing application              : FairUse Wizard - http://fairusewizard.com
Writing library                  : The best and REALLY easy backup tool

Video
Format                           : MPEG-4 Visual
Format profile                   : Streaming Video@L1
Format settings, BVOP            : Yes
Format settings, QPel            : No
Format settings, GMC             : No warppoints
Format settings, Matrix          : Default
Muxing mode                      : Packed bitstream
Codec ID                         : XVID
Codec ID/Hint                    : XviD
Duration                         : 1h 23mn
Bit rate                         : 1 027 Kbps
Width                            : 624 pixels
Height                           : 336 pixels
Display aspect ratio             : 1.857
Frame rate                       : 25.000 fps
Resolution                       : 24 bits
Colorimetry                      : 4:2:0
Scan type                        : Progressive
Bits/(Pixel*Frame)               : 0.196
Stream size                      : 617 MiB (88%)
Writing library                  : XviD 1.2.0.dev47 (UTC 2006-11-01)

Audio
Format                           : MPEG Audio
Format version                   : Version 1
Format profile                   : Layer 3
Codec ID                         : 55
Codec ID/Hint                    : MP3
Duration                         : 1h 23mn
Bit rate mode                    : Constant
Bit rate                         : 128 Kbps
Minimum bit rate                 : 128 Kbps
Channel(s)                       : 2 channels
Sampling rate                    : 48.0 KHz
Resolution                       : 16 bits
Stream size                      : 76.9 MiB (11%)
Alignment                        : Aligned on interleaves
Interleave, duration             : 40 ms (1.00 video frame)
Interleave, preload duration     : 504 ms
Writing library                  : LAME3.97
Encoding settings                : CBR
SCREENSHOTS:
Image
Image
Image
Image
Image
Image
ED2K LINKS:
User avatar
Andrei
Contributor
Contributor
 
Karma: [+] 1620 [-]
Posts: 11595
Joined: Fri Sep 21, 2007 6:01 pm
Location: Anonymous

Return to Films Français

Who is online

Users browsing this forum: No registered users and 2 guests